как запустить игру bin файл


 

 

 

 

Как открыть файл bin через Daemon Tools. Одной из самых популярных программ для открытий бин файлов считается Daemon Tools.После этого пробуйте запустить файл. Многие пользователи, скачав ту или иную игру или программу, сталкиваются с тем, что она содержит непонятный формат файла .bin, который нужно открыть, для установки приложения. Описание на русском: Файл двоичных данных. Описание на английском: Generic Binary File.Формат файла .bin 4. Тип файла: Файлы игр.Файл можно также запустить из командной строки. Для этого наберите "filename. bin", где filename - имя исполняемого файла. (Правой кнопкой мыши встать на виртуальный диск и кликнуть смонтировать образ, указать место где лежат bin-файлы) и запускать образы с них.DedaL: А у меня 4 bin файла и 1 exe не запускается, как мне быть? Как работать с образами дисков в формате bin. Образ диска в виде единого файлаСейчас в сети можно найти и скачать расширение bin, с которым сохранены игры, аудио-CDдиском, то есть открывать в проводнике, запускать воспроизведение музыки или установку игры. Программы для работы с BIN - Различные программы для открытия файлов BIN. Это могут быть образы дисков или файлы с содержанием видео-контента.Главная Новости Статьи Программы Руководства Игры Драйверы Техника Сообщество. 3. Как запустить игру? Запустите эмулятор, зайдите в меню "File(Файл)".

Большинство эмуляторов поддерживают загрузку архивов .zip, и .rar, однако, если не получается, извлеките из архива игру ( файл с расширением .BIN , .SMD, .GEN). Как запустить игру-образ? Скачать Nero Burning Rom или другую программу для записи дисков.Обратите внимание: иногда в Unecm.

bat не прописано автоматическое удаление "старого" файла (например, с расширением .bin.ecm), в этом случае удалять придётся руками. Если интересующий вас файл в формате bin по размеру примерно равен объему DVD или CD диска, то возможно, что это образ какого-либо диска. Попробуйте запустить данный файл при помощи программы, которая работает с образами, например, Daemon Tools или Nero. Формат файла BIN - описание, чем открыть? Файлы формата BIN открываются специальными программами.Файлы BIN (читается БИН) часто сохраняются с другими файлами метаданных, которыеПозволяет запускать игры так же, как они запускаются на консоли. FILE "filename.bin" BINARY TRACK 01 MODE1/2352 INDEX 01 00:00:00. Вместо "filename. bin" подставьте имя соответствующего .bin файла.Вы можете перетащить файл .cue на значок виртуального диска внизу окна запущенной программы Daemon Tools. Если же это не ваш случай тогда можете установить игры при помощи программ открывающих образ диска, помещенный в файл бин.После этого можно запускать и просматривать содержимое как обычного диска. Третья программа открывающая файлы bin — UltraISO. Код: FILE "filename.bin" BINARY TRACK 01 MODE1/2352 INDEX 01 00:00:00. вместо "filename" ест-но надо подставить имя bin-файла. аДобавлено спустя 31 минуту, 10 секунд: записал диск с игрой, диск запустил, выскочило меню игры с приглашением Проинсталировать, запустил Как открыть файл bin. Многие пользователи сталкиваются с проблемой открытия файла с расширением .bin. Это расширение может быть у программы или игры, скаченной через интернет. В играх bin файлы используются как установочные архивы, а некоторые программы для копирования дисков делают образы дисков с расширением bin. Чтобы открыть файл bin на компьютере, необходимо для начала узнать, для какой программы он был создан. Если же это не ваш случай тогда можете установить игры при помощи программ открывающих образ диска, помещенный в файл бин.После этого можно запускать и просматривать содержимое как обычного диска. Третья программа открывающая файлы bin 8212 UltraISO. Для этого необходимо запустить из командной строки, набрав «[имя файла]. bin», где [имя файла] это имя исполняемого файла.Образ игр Atari 2600 Расширением BIN файла связанно с эмулятором игр для Atari 2600, таких как Stella и PCAEWin. Как запустить компьютер в безопасном режиме: вход в Windows 8.Образы компьютерных игр. Файл BIN предназначен для хранения двоичных данных, необходимых компьютеру при выполнении определённых действий. введите FILE "filename.bin" BINARY и нажмите Enter, заменив filename именем BIN-файлаКогда процесс установки будет завершен, можно запустить игру (как обычно). Как установить игру в Bin-файле? Тема в разделе "Компьютерные игры", создана пользователем Stelzzer, 9 Июнь 2007.P.S. Если не догадался то Setup.exe - установщик игры или программы, а setup-x. bin его архивы разбитые по 700 мегов или еще по Надо найти или скачать первый диск с игрой и на нем будут файлы game-1. bin, game-2.bin и файл запуска игры с расширением ехеи его надо запускать для запуска игры.Когда при установке игры установщик потребует диск-2 В общем трабла такая,хочу устанвоть игру,там два бин файла,но в виндовс 7 они почему то открываюстся алкоголема как запустить их "самих"bin - это просто расширение для файлов с двоичными данными (прошивки, образы дисков, служебные данные и т.п.). У этих файлов И перетаскиваем этот файл в терминал, запущенный от суперпользователя, имя файла и путь уже впишутся автоматически, остается лишь нажать на кнопку «Enter». Далее, вы можете установить bin файл, как и в первом варианте. Зачем нужны bin-файлы? Расширение bin происходит от слова «binary» двоичный. В документе содержится информация в виде двоичного кода. Они используются как вспомогательные файлы при хранении информации или в играх в качестве установочных Backup file.Для открытия BIN файлов необходимо знать, для какой цели они предназначены. Если вы скачали архив с игрой, как правило, они качаются в формате ISO, но бывает, что это происходит в формате BIN. Если же Вы уверены, что в bin файле не игра, а видео то можно попробовать выбрать другую программы для просмотра.Пример поиска в Google: «Файл filetype:BIN». В этот раз разберём как запускать исполняемые файлы форматов bin, sh и python. Как правило, он чаще всего встречают геймеры, которые скачали игру, а в ней только незнакомый тип. Если BIN файл не открывается, то можно попробовать открыть, изменив расширение с «. bin» на «.

iso».Запуск. 1 Что это такое BIN формат. 2 Основные виды bin-файлов. 3 Как открыть файл BIN. 3.1 Образы дисков с расширением bin.Запустите данную программу Выберите вкладку «File» (Файлы) Чтобы открыть файл, проделайте следующее: Запустите программу В верхнем левом углу в шапке меню найдите кнопку «Запись данных»Корректно открыть bin файл может только программа, для которой он предназначен. Файл bin формата может быть просто файлом с Говорим "No" на вопрос "Search for the file?" - кряк сам создаст файл cryptapi.dll и dtprohlp.dll.- Подсказка: Как запустить скачаные игры?! Что такое BIN, CUE, ISO Как открыть файл bin через Daemon Tools. Одной из самых популярных программ для открытий бин файлов считается Daemon Tools.Позволяет запускать игры так же, как они запускаются на консоли. 1. bin (бин) файл что это? bin файлы это бинарные файлы.Часто такие файлы весят до 10 кб, и используются приложениями, играми и другим, а запуск .bin файлов происходит автоматически. Engname: Macbinary II Encoded File. Чем открыть файл .bin.Файлы BIN очень часто можно увидеть в установочных файлах игр, программного обеспеченияЧаще всего пользователь запускает EXE файл запуска, а они уже автоматически запускают BIN файл и считают для Файл bin: чем открыть прошивку, образ диска. Файл бин для установки приложений и игр.Когда Windows попытается запустить данный файл, то вы получите либо предупреждение, что вы не сможете открыть его, а при худшем варианте событий, можно столкнуться и с Если же это не ваш случай тогда можете установить игры при помощи программ открывающих образ диска, помещенный в файл бин.КАК ЗАПУСТИТЬ ФАЙЛ BIN — Чем открыть файл BIN. Файл, содержащий данные в бинарном формате. Чем открыть бинарный файл BIN. Доброго времени суток, друзья! При скачивании или копировании с диска, флешки игры илиМогу сразу Вам сказать: универсальных сервисов для открытия бин файлов нет, так как уже говорил, все они имеют разное предназначение и суть. FILE "filename.bin" BINARY TRACK 01 MODE1/2352 INDEX 01 00:00:00.Как смонтировать iso файл. Часто бывает, что скачав необходимую программу или игру, вы не можете запустить ее. Говорим «No» на вопрос «Search for the file?» — кряк сам создаст файл cryptapi.dll и dtprohlp.dll.5) Закрываем кряк, запускаем Даемон.Как установить игру с bin/cue файлами посредством Daemon Tools. Кряк скажет, что не может найти cryptapi.dll - все нормально, мы же его переименовали. Говорим "No" на вопрос "Search for the file?" - кряк сам создаст файл cryptapi.dll и dtprohlp.dll.- Подсказка: Как запустить скачаные игры?! Что такое BIN, CUE, ISO Самый распространенный тип файлов BIN - это двоичный файл образа CD или DVD диска, очень похож на ISO. Поэтому, если не открывается файл BIN, можно попробовать поменять расширение на ISO. Опубликовано: 23 авг. 2016 г. Как установить игру с расширением BIN, MDF, MDS, ISO, MDX. Чем открыть игру?Как запустить файлы формата MDF. Как запустить bin файл? Программное обеспечение. Валентин говоритСам по себе, ярлык — это такой файл, в свойствах которого прописан путь, что он должен открывать, но он сам не запускается, он запускает программу. скачал я игруху для первой Сони, она с расширением .bin. как его запустить на эмуляторе ePSXe 1.60?Откриваеш свой ePSXe, выбираеш File ,Run Iso и открываеш свой файл (bin). Нередко такие файлы, особенно при наличии у них небольшого размера (например, 510 кб), используются только конкретными программами и играми, в процессе установки или использования которых запуск файлов bin происходит автоматически. Поддерживает работу с ISO, BIN/CUE, IMG/CCD/SUB, MDF/MDS, PDI, GI, C2D, CIF, NRG, BWI/BWT, LCD, CDI, TAO/DAO, CIF, VCD, NCD, GCD/GI, VC4/000, VDI, VaporCD и другими (менее популярными) форматами. UltraISO Premium Edition работает не только с файлами в формате Бывает такое, что пользователь скачивает из интернета какую-либо программу или игру, и среди файлов попадаются некоторые, имеющие расширение BIN, а их необходимо открыть для того, чтобы запустить непосредственно установку. open-file.ru/types/bin.LordConqueror Эмэто же средства, чтобы разрабатывать игры WinHex хоть и открыл BIN-файлы, но они представлены в виде текстовых документов. Бинарный файл обычно привязывается к исполнительному файлу программы или игры, а также к DLL-файлам.Если вам потребовалось лишь запустить на компьютере файл BIN, данный инструмент позволит легко создать виртуальный привод и выполнить запуск имеющегося Универсальной программы открывающей все типы бин файлов я не встречал, поэтомуОткрыть его можно следующим образом: запустить одну из перечисленных выше программ3. Видео в формате bin Если же Вы уверены, что в bin файле не игра, а видео то можно Ответ: Файлы BIN имеют Файлы данных, который преимущественно ассоциирован с Binary File.Файлы игр.

Свежие записи: